Avatar

TheFlyinFox

TheFlyinFox

Can't use .avi in a project I'm trying to make a little movie but when loading my clips in HitFilm Express it gives an error... I saw another discussion about this and followed the steps but I wasn't able to figure it out... Here's one of the clips' MediaInfo:  Video ID : 0 Format : AVC Format/Info : Advanced Video Codec Format profile : [email protected] Format settings : CABAC / 2 Ref Frames Format settings, CABAC : Yes Format settings, RefFrames : 2 frames Format settings, GOP : M=3, N=15 Codec ID : H264 Duration : 14 s 300 ms Bit rate : 17.2 Mb/s Width : 1 920 pixels Height : 1 080 pixels Display aspect ratio : 16:9 Frame rate : 30.000 FPS Color space : YUV Chroma subsampling : 4:2:0 Bit depth : 8 bits Scan type : Progressive Bits/(Pixel*Frame) : 0.277 Stream size : 29.4 MiB (96%) Audio ID : 1 Format : PCM Format settings : Little / Signed Codec ID : 1 Duration : 14 s 280 ms Bit rate mode : Constant Bit rate : 705.6 kb/s Channel(s) : 1 channel Sampling rate : 44.1 kHz Bit depth : 16 bits Stream size : 1.20 MiB (4%) Alignment : Aligned on interleaves Interleave, duration : 70 ms (2.09 video frames)

About

Username
TheFlyinFox
Joined
Visits
18
Last Active
Roles
Website User
Badges
0
Posts
12

Activity

  • Not much happening here, yet.
Avatar

Howdy, Stranger!

It looks like you're new here. If you want to get involved, click one of these buttons!

Badges

Any minute now…