60fps video imports into 1fps. help?

fxhomer292864
fxhomer292864 Posts: 2 Just Starting Out*

Noob here, no idea what i'm doing, but I'm learning.

I created a video at what I thought was 60fps, however when I import into the hitfilm express timeline, the properties say the video frame rate is 1fps.

What have I done wrong?

Thank you for any help you can provide.


Mediainfo data below:

General

Complete name                           : C:\Users\brandon\Desktop\Videos\music loop\house music loop.mp4

Format                                  : MPEG-4

Format profile                          : Base Media / Version 2

Codec ID                                : mp42 (isom/mp42)

File size                               : 35.4 GiB

Duration                                : 10 h 0 min

Overall bit rate                        : 8 457 kb/s

Encoded date                            : UTC 2021-11-12 06:33:01

Tagged date                             : UTC 2021-11-12 06:33:01


Video

ID                                      : 2

Format                                  : AVC

Format/Info                             : Advanced Video Codec

Format profile                          : [email protected]

Format settings                         : 2 Ref Frames

Format settings, CABAC                  : No

Format settings, Reference frames       : 2 frames

Format settings, GOP                    : M=1, N=30

Codec ID                                : avc1

Codec ID/Info                           : Advanced Video Coding

Duration                                : 9 h 59 min

Bit rate                                : 8 332 kb/s

Width                                   : 1 920 pixels

Height                                  : 1 080 pixels

Display aspect ratio                    : 16:9

Frame rate mode                         : Constant

Frame rate                              : 60.000 FPS

Color space                             : YUV

Chroma subsampling                      : 4:2:0

Bit depth                               : 8 bits

Scan type                               : Progressive

Bits/(Pixel*Frame)                      : 0.067

Stream size                             : 34.9 GiB (99%)

Language                                : English

Encoded date                            : UTC 2021-11-12 06:33:01

Tagged date                             : UTC 2021-11-12 06:33:01

Codec configuration box                 : avcC


Audio

ID                                      : 1

Format                                  : AAC LC

Format/Info                             : Advanced Audio Codec Low Complexity

Codec ID                                : mp4a-40-2

Duration                                : 10 h 0 min

Bit rate mode                           : Constant

Bit rate                                : 117 kb/s

Channel(s)                              : 2 channels

Channel layout                          : L R

Sampling rate                           : 48.0 kHz

Frame rate                              : 46.875 FPS (1024 SPF)

Compression mode                        : Lossy

Stream size                             : 504 MiB (1%)

Language                                : English

Encoded date                            : UTC 2021-11-12 06:33:01

Tagged date                             : UTC 2021-11-12 06:33:01

Answers