Exporting a clip

Hello, I started this discussion here.

I have exported a 10’12 scene from a DVD with Handbrake. It gave me a .avi file that I imported into Hitfilm and cut down to 3’50. Audio and Video track are sync.

In a composite view, I created 39 text boxes.

Now, I need your help for exporting. When I add all the elements in the composite view tab to the export list, the resulting file is 10 Go (!) large. When I only export the clip in the main view tab, I get a mor reasonable 140 Mo File.

But in both cases, the .avi file is corrupted: no video at all, and audio stops after a minute for lack of an index.

 

I'm using Hitfilm 5.0.7012

Original File

General
Complete name                            : C:\xxx\scene_english.mp4
Format                                   : MPEG-4
Format profile                           : Base Media / Version 2
Codec ID                                 : mp42 (isom/iso2/avc1/mp41)
File size                                : 64.6 MiB
Duration                                 : 10 min 12 s
Overall bit rate mode                    : Variable
Overall bit rate                         : 884 kb/s
Encoded date                             : UTC 2018-03-15 14:28:44
Tagged date                              : UTC 2018-03-15 14:28:44
Writing application                      : HandBrake 1.0.7 2017040900

Video
ID                                       : 1
Format                                   : AVC
Format/Info                              : Advanced Video Codec
Format profile                           : [email protected]
Format settings                          : CABAC / 4 Ref Frames
Format settings, CABAC                   : Yes
Format settings, RefFrames               : 4 frames
Codec ID                                 : avc1
Codec ID/Info                            : Advanced Video Coding
Duration                                 : 10 min 12 s
Bit rate                                 : 719 kb/s
Width                                    : 718 pixels
Height                                   : 428 pixels
Display aspect ratio                     : 2.40:1
Frame rate mode                          : Variable
Frame rate                               : 25.000 FPS
Minimum frame rate                       : 4.310 FPS
Maximum frame rate                       : 25.000 FPS
Color space                              : YUV
Chroma subsampling                       : 4:2:0
Bit depth                                : 8 bits
Scan type                                : Progressive
Bits/(Pixel*Frame)                       : 0.094
Stream size                              : 52.5 MiB (81%)
Writing library                          : x264 core 148 r2708 86b7198
Encoding settings                        : cabac=1 / ref=2 / deblock=1:0:0 / analyse=0x1:0x111 / me=hex / subme=6 / psy=1 / psy_rd=1.00:0.00 / mixed_ref=1 / me_range=16 / chroma_me=1 / trellis=1 / 8x8dct=0 / cqm=0 / deadzone=21,11 / fast_pskip=1 / chroma_qp_offset=-2 / threads=6 / lookahead_threads=1 / sliced_threads=0 / nr=0 / decimate=1 / interlaced=0 / bluray_compat=0 / constrained_intra=0 / bframes=3 / b_pyramid=2 / b_adapt=1 / b_bias=0 / direct=1 / weightb=1 / open_gop=0 / weightp=1 / keyint=250 / keyint_min=25 / scenecut=40 / intra_refresh=0 / rc_lookahead=30 / rc=crf / mbtree=1 / crf=22.0 / qcomp=0.60 / qpmin=0 / qpmax=69 / qpstep=4 / vbv_maxrate=20000 / vbv_bufsize=25000 / crf_max=0.0 / nal_hrd=none / filler=0 / ip_ratio=1.40 / aq=1:1.00
Encoded date                             : UTC 2018-03-15 14:28:44
Tagged date                              : UTC 2018-03-15 14:28:44
Color range                              : Limited
Color primaries                          : BT.601 PAL
Transfer characteristics                 : BT.709
Matrix coefficients                      : BT.601
Menus                                    : 3

Audio
ID                                       : 2
Format                                   : AAC
Format/Info                              : Advanced Audio Codec
Format profile                           : LC
Codec ID                                 : mp4a-40-2
Duration                                 : 10 min 12 s
Bit rate mode                            : Variable
Bit rate                                 : 160 kb/s
Channel(s)                               : 2 channels
Channel positions                        : Front: L R
Sampling rate                            : 48.0 kHz
Frame rate                               : 46.875 FPS (1024 SPF)
Compression mode                         : Lossy
Stream size                              : 11.7 MiB (18%)
Title                                    : Stereo / Stereo
Language                                 : English
Default                                  : Yes
Alternate group                          : 1
Encoded date                             : UTC 2018-03-15 14:28:44
Tagged date                              : UTC 2018-03-15 14:28:44
Menus                                    : 3

Menu
ID                                       : 3
Codec ID                                 : text
Duration                                 : 10 min 12 s
Language                                 : English
Encoded date                             : UTC 2018-03-15 14:28:44
Tagged date                              : UTC 2018-03-15 14:28:44
Bit rate mode                            : CBR
Menu For                                 : 1,2
Duration_FirstFrame                      : 180336
00:00:00.000                             : Chapter 17
00:06:36.376                             : Chapter 18

Output File

General
Complete name                            : C:\xxx\Editor.avi
Format                                   : AVI
Format/Info                              : Audio Video Interleave
File size                                : 462 MiB
Duration                                 : 3 min 45 s
Overall bit rate                         : 17.2 Mb/s

Video
ID                                       : 0
Format                                   : RGB
Codec ID                                 : 0x00000000
Codec ID/Info                            : Basic Windows bitmap format. 1, 4 and 8 bpp versions are palettised. 16, 24 and 32bpp contain raw RGB samples
Duration                                 : 3 min 45 s
Source duration                          : 1 min 21 s
Bit rate                                 : 66.9 Mb/s
Width                                    : 718 pixels
Height                                   : 428 pixels
Display aspect ratio                     : 5:3
Frame rate                               : 25.000 FPS
Bit depth                                : 8 bits
Bits/(Pixel*Frame)                       : 8.709
Stream size                              : 1.75 GiB

Audio
ID                                       : 1
Format                                   : PCM
Format settings                          : Little / Signed
Codec ID                                 : 1
Duration                                 : 1 min 21 s
Bit rate mode                            : Constant
Bit rate                                 : 1 536 kb/s
Channel(s)                               : 2 channels
Sampling rate                            : 48.0 kHz
Bit depth                                : 16 bits
Stream size                              : 15.0 MiB (3%)
Alignment                                : Aligned on interleaves
Interleave, duration                     : 40  ms (1.00 video frame)

 

Sign In or Register to comment.